#TITLE:Precious Memories;
#SUBTITLE:- Kimi ga Nozomu Eien Opening;
#ARTIST:Minami Kuribayashi;
#TITLETRANSLIT:;
#SUBTITLETRANSLIT:- Rumbling Hearts Opening;
#ARTISTTRANSLIT:;
#CREDIT:Asahina-san;
#BANNER:videobanner.avi;
#BACKGROUND:precious memories.png;
#LYRICSPATH:precious.lrc;
#CDTITLE:Asahina-san.png;
#MUSIC:Precious Memories.mp3;
#OFFSET:0.360;
#SAMPLESTART:55.852;
#SAMPLELENGTH:17.600;
#SELECTABLE:YES;
#BPMS:0.000=143.370;
#STOPS:;
#BGCHANGES:1.000=nosound.avi=1.000=0=0=0,
265.000=background 1.jpg=1.000=1=0=0,
99999=-nosongbg-=1.000=0=0=0 // don't automatically add -songbackground-
;
// cache tags:
#FIRSTBEAT:2.500;
#LASTBEAT:213.000;
#SONGFILENAME:songs/Otaku's Dream 3rd Anime Mix/[Asahina-san] Precious Memories - Kimi ga Nozomu Eien OP/precious.sm;
#HASMUSIC:1;
#HASBANNER:1;
#MUSICLENGTH:89.808;
// end cache tags

//---------------dance-single - ----------------
#NOTES:
     dance-single:
     :
     Challenge:
     11:
     1.000,1.000,1.000,1.000,0.540,430.000,164.000,92.000,0.000,0.000:
0000
0000
0000
0000
0000
0000
0000
0000
0000
0000
0000
0000
0000
0000
0000
1000
0100
0010
0001
0010
0100
1000
0100
0010
,
0001
0000
0022
0000
0000
0000
0033
0000
0210
0000
1000
0000
0001
0300
1020
0000
,
0000
0030
1100
0000
0101
0000
0110
1010
,
0000
0000
0012
0000
2000
0000
0000
3003
2100
0000
0002
0000
0000
3003
1100
0000
,
0102
0000
0000
0000
0000
0000
0000
0000
0000
0000
0000
0000
0000
0000
0000
0000
0000
0000
0000
0000
0000
0000
0000
0000
0000
0000
0000
0000
0000
0000
0000
0000
0000
0000
0000
0000
0000
0000
0000
0000
0000
0000
0003
0000
0000
0000
0000
0000
1100
0000
0000
0000
0000
0000
0000
0000
0011
0000
0000
0000
0000
0000
0000
0000
1100
0000
0000
0000
0000
0000
0000
0000
0000
0000
0000
0000
0000
0000
0000
0000
0000
0000
0000
0000
0000
0000
0000
0000
0000
0000
0000
0000
0000
0000
0000
0000
1000
0000
0000
0000
0000
0000
0000
0000
0000
0000
0000
0000
0000
0000
0000
0000
0000
0000
0000
0000
0000
0000
0000
0000
0010
0000
0000
0000
0000
0000
0000
0000
0000
0000
0000
0000
0000
0000
0000
0000
0000
0000
0000
0000
0000
0000
0000
0000
0100
0000
0000
0000
0000
0000
0000
0000
0000
0000
0000
0000
0000
0000
0000
0000
0000
0000
0000
0000
0000
0000
0000
0000
0001
0000
0000
0000
0000
0000
0000
0000
0000
0000
0000
0000
0000
0000
0000
0000
0000
0000
0000
0000
0000
0000
0000
0000
,
0010
0110
0010
1010
0010
0011
0010
0110
,
0010
0000
1010
0000
0010
0000
0101
0000
0011
0000
0010
0000
0001
0010
0100
1000
,
0220
0000
0000
0000
0000
0000
0000
0000
0000
0000
0000
0000
0000
0000
0000
0000
0000
0000
0000
0000
0000
0000
0000
0300
,
0000
0100
0001
0100
0002
0000
0000
0000
0000
0000
0000
0033
0110
0000
0000
0000
0000
0000
0101
0000
0000
1010
0000
0000
,
0202
0000
0000
0000
0303
0000
1010
0011
,
2100
0010
0100
0010
0001
0010
0100
0010
,
3000
0000
0000
0110
0000
0000
0000
0000
0000
0011
0000
0000
2020
0000
3030
0000
0000
0000
0110
0000
0000
0022
0000
0033
,
0100
0001
1000
0010
0100
0011
1100
0110
,
2100
0000
0001
0000
0100
0000
0010
0000
3001
0000
0100
0000
0120
0000
2000
3030
,
2100
0000
0000
0000
0000
0000
0100
0000
0000
0000
0000
0000
0010
0000
0000
0000
0000
0000
0100
0000
0000
0000
0000
0000
0001
0000
0000
0000
0000
3000
0022
0000
0000
0000
0000
0000
0033
0000
0000
0000
0000
0000
2200
0000
0000
0000
0000
0000
,
3300
0000
2200
0000
3300
0022
0000
0033
2100
0000
0001
0000
0010
0000
0001
0000
,
0100
0000
0001
0000
0010
0000
0001
0000
0100
0000
3010
1000
0101
0000
0110
0000
,
1002
0000
0013
0000
0100
0000
0001
0000
1000
0000
0010
0000
1100
0010
0101
0000
,
1200
0000
0301
0000
0010
0000
1000
0000
0010
0000
0120
0000
1000
0030
0201
0000
,
1000
0300
1020
0000
0000
0000
0200
0330
1000
0000
0000
0000
0001
0000
0201
0000
,
0010
0000
1000
0000
0001
0000
0010
0000
1000
0000
0301
0000
1010
0000
0011
1000
,
0102
0000
0010
0000
1000
0000
0100
0000
0010
0000
1003
0000
1010
0000
0101
0010
,
2100
0100
0010
0001
3010
0110
0000
0101
,
0000
0000
1010
0000
0000
0101
0000
0000
0220
0000
0000
0000
0000
0000
0330
0000
,
1001
0000
0000
0000
0000
0000
0001
0010
0001
0100
0001
1000
0001
0100
0001
0010
0100
1000
0100
1000
0100
1000
0000
0000
,
0011
0000
0110
0000
1100
0000
1100
0001
0010
0001
0100
0001
0010
0001
1100
0000
,
0011
0000
1100
0000
0011
0000
0001
0100
1000
0100
0001
0010
1000
0010
0001
0000
,
0010
0000
1010
0000
0100
0000
1000
0100
1000
0010
1000
0001
1000
0010
1000
0000
,
0210
0000
0301
0000
0100
0000
1000
0100
0001
0100
1000
0000
0011
0000
2100
0000
,
3100
0000
0101
0000
1010
0000
0101
0000
0001
0010
0100
0010
1000
0000
0100
0000
,
0210
0000
0010
0000
0010
0000
0001
1000
0310
0001
1000
0010
1100
0000
0011
0000
,
1200
0000
0310
0110
0010
0110
0010
0101
,
1200
0300
0011
1100
0011
0000
1010
0000
0100
0000
0011
1100
0011
0000
1100
0000
,
1010
0000
0000
0000
0000
0000
0000
0000
0001
0000
0000
0000
0101
0000
0000
0000
0000
0000
0000
0000
0022
0000
0000
0033
2200
0000
0000
3300
0022
0000
0000
0033
,
2200
0000
0000
3300
0011
0000
0000
0000
0010
0000
0000
0000
1010
0000
0000
0000
0010
0000
0000
0000
0110
0000
0000
0000
0010
0000
0000
0000
0110
0000
0000
0000
,
0010
1010
0010
0011
0012
0100
1000
0100
,
0013
1000
0110
0000
0010
0000
0011
0000
1000
0000
0110
0000
1000
0000
1100
0010
,
0100
0000
0210
0000
0000
0000
0010
0000
0310
0000
0110
0000
0010
0000
0012
0100
,
1003
0000
0110
0000
0001
0000
0110
0000
0100
0000
0011
0000
0100
0000
1100
0010
,
0100
0000
0000
0000
1020
0000
0000
0000
0100
0000
0000
0030
1100
0000
0000
0000
0001
0000
0000
0000
1001
0000
0000
0000
0000
0000
0000
0000
0110
0000
0000
0000
,
0000
0000
0101
0000
0000
1010
0000
0000
2100
0010
0001
0010
0100
0001
0010
0100
,
0001
0000
0000
0000
0100
0000
0000
0000
0010
0000
0000
0000
0100
0000
0000
0000
0001
0000
0000
0000
0010
0000
0000
0000
0100
0000
0000
0000
0001
0000
0000
0000
3100
0000
0000
0000
0000
0000
0000
0000
2200
0000
0000
0000
0000
0000
0000
3300
0022
0000
0000
0000
0000
0000
0000
0033
2200
0000
0000
0000
0000
0000
0000
3300
,
0022
0000
0000
0000
0000
0000
0000
0033
1100
0000
0000
0000
0000
0000
0000
0000
0000
0000
0000
0000
1010
0000
0000
0000
0000
0000
0000
0000
0000
0000
0000
0000
0110
0000
0000
0000
0000
0000
0000
0000
0011
0000
0000
0000
0000
0000
0000
0000
0000
0000
0000
0000
1010
0000
0000
0000
0000
0000
0000
0000
0000
0000
0000
0000
,
1010
0000
0022
0033
0000
2002
3003
0000
0210
0000
0010
0000
0001
0000
1300
0000
,
0100
0000
0000
1000
0000
0000
0110
0000
0000
0000
0000
0000
0000
0000
0000
0011
0000
0000
0000
0000
0000
0000
0000
1100
0000
0000
0000
0000
0000
0000
0101
0000
0000
0000
0000
0000
0000
0000
0000
0011
0000
0000
0000
0000
0000
0000
0000
0000
,
1010
0000
0000
0000
0000
0000
0210
0000
0000
0000
0000
0000
1000
0000
0000
0010
0000
0000
0001
0000
0000
0010
0000
0000
1000
0000
0000
0310
0000
0000
1002
0000
0000
0000
0000
0000
1000
0000
0000
0000
0000
0003
0120
0000
0000
0000
0000
0000
,
0100
0000
0000
0000
0000
0030
1100
0000
0000
0000
0000
0000
0000
0000
0000
0011
0000
0000
0000
0000
0000
0000
0000
0000
2100
0000
0000
0010
0000
0000
0001
0000
0000
0100
0000
0000
0001
0000
0000
0010
0000
0000
0001
0000
0000
0010
0000
0000
,
0100
0010
0001
0010
0001
0010
0100
0010
3001
0000
0220
0000
0330
0000
0202
0000
,
0303
0000
2020
0000
3030
0202
0000
0303
2200
0000
0000
0000
0000
0000
0000
0000
,
3300
0001
0010
1000
0100
0001
1000
0010
0001
1000
0101
0000
0000
0000
1010
0000
,
0000
0000
0101
0000
0000
1100
0000
0000
0220
0000
0000
0000
0000
0000
0000
0000
,
0000
0000
0000
0000
0000
0000
0000
0000
0000
0000
0000
0000
0000
0000
0000
0030
0001
0000
0000
0000
0010
0000
0000
0000
1000
0000
0000
0000
0010
0000
0000
0000
0001
0000
0000
0000
0010
0000
0000
0000
1000
0000
0000
0000
0010
0000
0000
0000
0001
0000
0000
0000
0010
0000
0000
0000
1000
0000
0000
0000
0010
0000
0000
0000
,
0001
0010
0001
0010
0002
0000
0000
0000
0000
0300
0020
0000
0000
0000
0000
0000
,
0000
0033
0000
0000
;

//---------------dance-single - ----------------
#NOTES:
     dance-single:
     :
     Hard:
     8:
     0.499,0.468,0.122,0.401,0.072,267.000,11.000,36.000,0.000,0.000:
0000
0000
0000
0000
0000
0000
0000
0000
0000
0000
0000
0000
0000
0000
0000
0000
0000
0000
0000
0000
0200
0000
0000
0000
0000
0000
0000
0000
0020
0000
0000
0030
,
0000
0000
0000
0300
0010
0000
0000
0000
0000
0000
0000
0000
0000
0000
0000
0000
0100
0000
0000
0000
0000
0000
0000
0000
0000
0000
0000
0000
0001
0000
0000
0000
,
0000
0000
0100
0000
0001
0000
0100
0001
,
0000
0100
0000
0000
0010
0000
0000
1000
,
0001
0000
1000
0001
0100
0010
0100
0010
,
0000
0001
1000
0001
1000
0001
1000
0001
,
1000
0001
0100
0010
0100
0010
0100
0010
,
2002
0000
0000
0000
,
3000
0200
0000
0000
0000
0303
0010
1000
,
0020
1000
1000
1000
1030
0000
0001
1000
,
0002
1000
1000
1000
1000
0000
0000
0000
,
0003
0001
0000
1000
0001
0000
1000
0002
,
0000
1000
1000
1000
1000
0000
1003
0001
,
2000
0001
0001
0001
3001
0000
0010
1000
,
0020
0100
0100
0100
0100
1030
0000
0010
,
0000
0000
1000
0000
0000
0001
0000
0000
0210
0000
0010
0000
0000
0000
0010
0000
,
0000
0010
0000
0010
0000
0010
0301
1000
,
0002
1000
0000
1000
0000
1003
1000
1000
,
2000
0001
0000
0001
0000
3001
0000
1000
,
0000
0001
0000
1000
0001
0000
1000
1002
,
0000
1000
0000
1000
0000
0103
0010
0100
,
2001
0001
0000
0001
0000
3001
0100
0010
,
1002
0000
1000
0000
0000
0000
1000
0000
0003
0000
2000
0000
0000
3000
0002
0000
,
0000
0003
2000
0000
0000
3010
0000
0000
0020
0000
0100
0000
0000
0000
0100
0000
,
0000
0130
0100
0010
0100
0010
0100
0010
,
0100
0000
0001
1000
0001
1000
0001
1000
,
0100
0000
0001
0010
0001
0010
0100
0010
,
0100
1000
0010
1000
0001
1000
0001
0100
,
0001
0000
1000
0010
1000
0010
0100
0010
,
1000
0010
0100
0001
0010
1000
0001
1000
,
0010
0000
0010
0001
0100
0010
0001
0100
,
0001
0000
0001
0100
0010
0000
0010
0100
,
0001
0000
0001
0000
0000
0010
0000
0000
,
0001
0000
1000
1000
0000
0001
0100
0001
,
0000
0100
0010
0100
0000
0010
1000
0010
,
0000
0100
0001
0100
0000
0010
0100
0001
,
0100
0001
0000
0001
0000
0001
0000
0001
,
0100
0010
0000
0010
1000
0010
0000
0010
,
0100
0000
0010
0000
0000
0100
0000
0000
0010
0000
0100
0000
0000
0010
0000
0000
,
0100
0020
0000
0000
0030
0002
0000
0023
,
0000
0000
0230
0000
0000
0301
0000
0000
2000
0000
0001
0000
0000
0000
0001
0000
,
0000
0001
0000
0001
3000
0010
0000
0100
,
0000
0000
0001
0000
0000
0100
0000
0000
0001
0000
1000
0000
0000
0001
0000
0000
,
1000
0000
0001
0000
0000
1000
0000
0000
0002
0000
0000
0000
0000
0000
0000
0000
,
1003
0000
0010
0000
0000
0010
0000
0000
0010
0000
1000
0000
0000
1000
0000
0000
,
0001
0000
0200
0000
0000
0000
0001
0000
0000
0000
0302
0003
0000
0000
0020
0030
,
0000
0000
0200
0300
0000
0200
0300
0000
0002
0000
1000
0000
0000
0000
1000
0000
,
0000
1000
0000
1000
0003
1010
0000
0110
,
0000
0000
0101
0000
0000
0101
0000
0000
0202
0000
0000
0000
0000
0000
0000
0000
,
0000
0000
0303
0000
0000
0001
0000
0010
,
0000
0000
0100
0000
0000
1000
0000
0000
2200
0000
0000
0000
0000
0000
0000
0000
,
0000
0000
0000
0000
,
0000
0000
3300
0000
;

//---------------dance-single - ----------------
#NOTES:
     dance-single:
     :
     Medium:
     6:
     0.352,0.472,0.056,0.145,0.039,203.000,5.000,13.000,0.000,0.000:
0000
0000
0000
0000
0000
0100
0000
0020
,
0030
0100
0000
0000
1000
0000
0000
0200
,
0300
0000
1000
0000
1000
0000
0001
1000
,
0000
2000
3000
0000
0002
0003
0000
0002
,
1003
0000
0000
0000
0100
0000
0000
0000
1000
0000
0100
0000
0000
0010
0000
0000
,
0000
0010
0000
0000
0001
1000
0001
1000
,
0010
0000
0100
0010
0000
0000
0010
0100
,
0002
0000
0000
0003
,
0020
0000
0030
0000
,
0000
0100
0010
0100
0010
0000
0000
0000
,
0000
0001
1000
0001
1000
0000
0000
0000
,
0000
0100
0010
0100
0010
0000
0000
0000
,
0000
0001
1000
0001
1000
0000
0000
0000
,
0000
0100
0010
0100
0010
0000
0000
0000
,
0000
0001
1000
0001
1000
0000
0000
0000
,
0000
0001
1000
0001
1000
0000
0000
0000
,
0000
0000
0010
0000
0100
0000
0010
0000
0100
0000
0000
0000
0000
0010
0000
0000
,
0000
0100
0010
0100
0010
0100
0010
0110
,
0000
0001
0100
0001
0100
0001
0100
0101
,
0000
1000
0100
1000
0100
1000
0100
1100
,
0000
1000
0001
1000
0001
1000
0001
1001
,
0001
2000
3000
0000
0000
0000
0010
0100
,
0120
0000
0030
0000
0000
0010
0000
1000
,
0000
0000
0010
0000
0000
1000
0000
0000
0020
0000
0000
0000
0000
0030
0000
0000
,
0010
0000
0010
1000
0010
0100
0000
0010
,
0100
0000
1000
0100
1000
0001
1000
0001
,
0010
0000
0100
0010
0000
0000
0010
0100
,
0010
0100
0000
0001
0010
0000
1000
0000
,
0100
0000
0000
0000
0000
0000
0001
1000
,
0001
0000
1000
0000
0000
0001
0000
0000
1000
0000
0000
0000
0010
0000
0100
0000
,
0020
0000
0000
0000
0030
0000
1000
0100
,
2000
0000
3000
0000
0010
0000
0100
0001
,
0100
0000
0100
0000
1000
0100
0000
0100
,
0010
0000
0010
0001
0000
0000
0000
0000
,
0000
0010
0000
0100
0000
0000
0000
1000
,
0000
0000
0000
0100
0000
0000
0010
0010
,
0000
0000
0000
0001
0000
0000
0000
0100
,
0000
0000
0000
0010
0000
0000
1000
1000
,
0000
0000
0000
0100
0000
0000
0000
0010
,
0000
0000
0000
0001
0000
0001
0000
0010
,
0100
0010
0000
1000
0000
0000
0000
0100
,
0000
0000
0000
0010
0000
0000
0010
0100
,
0010
0000
0000
0100
0000
0000
0000
0100
,
0000
0000
0000
0100
0000
0000
0001
0010
,
0001
0000
0000
1000
0000
0000
0000
0100
,
0000
0000
0000
0010
0000
0000
1000
0010
,
1000
0000
0000
1000
0000
0000
0000
0100
,
0000
0000
0000
0010
0000
0000
0001
0100
,
0001
0000
0000
1000
0000
0000
0000
0100
,
0000
0000
0000
0010
0000
0001
0000
0010
,
0000
0000
0001
0000
0000
1000
0000
0000
0002
0000
0000
0000
0000
0000
1000
0000
,
0000
0000
0000
1000
0000
0000
0000
0000
1000
0000
0000
0000
0000
0000
0000
1000
,
0000
0000
0000
1000
0000
0000
0000
0000
,
1003
0000
0000
0000
;

//---------------dance-single - ----------------
#NOTES:
     dance-single:
     :
     Easy:
     3:
     0.307,0.325,0.011,0.045,0.006,188.000,1.000,4.000,0.000,0.000:
0000
0000
0000
0000
0000
0100
0000
0010
,
0000
0010
0000
0000
0100
0000
0000
0100
,
0000
0000
0000
0000
,
0000
0010
0000
0000
1000
0000
0000
0010
,
1000
0000
0000
0000
,
0000
0001
0000
0010
0000
0001
0000
0010
,
0000
0001
0000
0001
0000
1000
0000
0001
,
0000
2002
0000
0000
0000
0000
0000
0000
,
3003
0020
0000
0000
0000
0030
0000
0000
,
0000
0001
0000
0010
0000
0001
0000
0010
,
0000
0100
0000
0010
0000
0100
0000
0010
,
0000
0001
0000
1000
0000
0001
0000
1000
,
0000
0010
0000
1000
0000
0010
0000
1000
,
0000
0010
0000
1000
0000
0001
0000
1000
,
0000
0001
0000
0010
0000
0100
0000
0010
,
0000
0100
0000
0010
0100
0010
0000
0100
,
0000
0010
0000
0100
0000
0001
0000
0100
,
0000
0010
0000
0100
0000
0010
0000
0100
,
0000
0001
0000
1000
0000
0001
0000
1000
,
0000
0001
0000
0010
0000
0001
0000
1000
,
0000
0100
0000
1000
0000
0100
0000
0010
,
0000
0100
0000
0001
0000
0100
0000
0010
,
0000
1000
0000
0010
0000
1000
0000
0010
,
0000
0100
0000
0001
0000
0100
0000
0100
,
0010
0000
0010
0100
0010
0100
0000
0010
,
0100
0000
0000
0100
0000
0100
0000
0100
,
0010
0100
0000
0100
0000
0100
0000
0010
,
0100
0010
0000
0010
0000
0100
0000
0000
,
0000
0000
0000
0100
0000
0001
0000
0100
,
0001
0100
0000
0010
0000
0010
0000
0000
,
0000
0000
0001
0001
0000
1000
0000
0001
,
1000
0001
0000
0001
0000
1000
0000
0010
,
0000
0100
0000
0010
0000
0100
0000
0000
,
1000
0000
0001
1000
0000
0000
0000
0000
,
0000
0001
0000
0010
0000
0001
0000
0010
,
0000
0010
0000
0100
0000
0010
0000
0010
,
0000
0001
0000
0001
0000
0010
0000
0010
,
0000
0100
0000
0100
0000
0001
0000
0010
,
0000
0100
0000
0010
0000
0010
0000
0010
,
0000
0010
0000
0100
0000
0001
0000
1000
,
0000
0010
0000
1000
0000
0010
0000
1000
,
0000
0010
0000
1000
0000
0001
0000
1000
,
0000
0001
0000
0100
0000
0001
0000
0100
,
0000
0001
0000
0100
0000
0001
0000
0100
,
0000
0010
0000
0100
0000
0010
0000
0100
,
0000
0010
0000
0100
0000
0010
0000
1000
,
0000
0010
0000
1000
0000
0010
0000
1000
,
0000
0010
0000
1000
0000
0100
0000
1000
,
0000
0100
0000
1000
0000
0100
0000
0010
,
0000
0100
0000
0010
0000
0100
0000
0010
,
0000
0000
0100
0000
0000
0010
0000
0000
0200
0000
0000
0000
0000
0000
0000
0000
,
0000
0000
0000
0000
,
0000
0000
0000
0000
,
0300
0000
0000
0000
;

//---------------dance-single - Copied from----------------
#NOTES:
     dance-single:
     Copied from:
     Beginner:
     1:
     0.124,0.112,0.000,0.000,0.006,78.000,0.000,0.000,0.000,0.000:
0000
0000
0000
0000
0000
0010
0000
0000
,
0000
0010
0000
0000
0010
0000
0000
0010
,
0000
0000
0000
0000
,
0000
0100
0000
0000
0100
0000
0000
0100
,
0000
0000
0000
0000
,
0000
0000
0000
0010
0000
0000
0000
0010
,
0000
0000
0000
0010
0000
0000
0000
0010
,
0000
0000
0000
0000
,
0000
0010
0000
0000
0000
0000
0000
0000
,
0000
0001
0000
0000
0000
0100
0000
0000
,
0000
0001
0000
0000
0000
0001
0000
0000
,
0000
0001
0000
0000
0000
1000
0000
0000
,
0000
1000
0000
0000
0000
0010
0000
0000
,
0000
1000
0000
0000
0000
0010
0000
0000
,
0000
1000
0000
0000
0000
0010
0000
0000
,
0000
0000
0000
0010
0000
0000
0000
0000
,
0000
0010
0000
0000
0000
0000
0000
0000
,
0000
0010
0000
0000
0000
0000
0000
0010
,
0000
0000
0000
0000
0000
1000
0000
0000
,
0000
0000
0000
1000
0000
0000
0000
0000
,
0000
1000
0000
0000
0000
0000
0000
0100
,
0000
0000
0000
0000
0000
0010
0000
0000
,
0000
0000
0000
0100
0000
0000
0000
0000
,
0000
0010
0000
0000
0000
0000
0000
0100
,
0000
0000
0000
0000
0000
0100
0000
0000
,
0000
0000
0000
0100
0000
0000
0000
0000
,
0000
0100
0000
0000
0000
0000
0000
0100
,
0000
0000
0000
0000
0000
0100
0000
0000
,
0000
0000
0000
0010
0000
0000
0000
0010
,
0000
0010
0000
0000
0000
0000
0000
0010
,
0000
0000
0000
0010
0000
0000
0000
0010
,
0000
0000
0000
0010
0000
0000
0000
0010
,
0000
0000
0000
0010
0000
0000
0000
0000
,
0010
0000
0010
0010
0000
0000
0000
0000
,
0000
0100
0000
0000
0000
0000
0000
0010
,
0000
0000
0000
0000
0000
0100
0000
0000
,
0000
0000
0000
0010
0000
0000
0000
0000
,
0000
0100
0000
0000
0000
0000
0000
0010
,
0000
0000
0000
0000
0000
1000
0000
0000
,
0000
0000
0000
0100
0000
0000
0000
0000
,
0000
0010
0000
0000
0000
0000
0000
0100
,
0000
0000
0000
0000
0000
0010
0000
0000
,
0000
0000
0000
0100
0000
0000
0000
0000
,
0000
0010
0000
0000
0000
0000
0000
0100
,
0000
0000
0000
0000
0000
0010
0000
0000
,
0000
0000
0000
0100
0000
0000
0000
0000
,
0000
0010
0000
0000
0000
0000
0000
0010
,
0000
0000
0000
0000
0000
0010
0000
0000
,
0000
0000
0000
0100
0000
0000
0000
0000
,
0000
0100
0000
0000
0000
0100
0000
0000
,
0000
0000
0100
0000
0000
0100
0000
0000
0100
0000
0000
0000
0000
0000
0000
0000
;
